I Love Me (2012) Malayalam Movie DVDRip XviD - Exclusive

seeders: 10
leechers: 1
Added on Mar 10, 2013 by extremerules19.77K in Movies > Asian
Torrent verified. Downloaded 198 times.

Download Fast Safe Anonymous
movies, software, shows...
I Love Me (2012) Malayalam Movie DVDRip XviD - Exclusive (Size: 691.35 MB)
  I Love Me (2012) Malayalam Movie DVDRip XviD - Exclusive.avi 691.35 MB
  Torrent downloaded from AhaShare.com.txt 65 bytes
  Readme.txt 63 bytes

Description

image



Info:
ormat : AVI
Format/Info : Audio Video Interleave
File size : 691 MiB
Duration : 1h 43mn
Overall bit rate : 932 Kbps

Video
ID : 0
Format : MPEG-4 Visual
Format profile : Advanced Simple@L5
Format settings, BVOP : 2
Format settings, QPel : No
Format settings, GMC : No warppoints
Format settings, Matrix : Default (H.263)
Muxing mode : Packed bitstream
Codec ID : DX50
Codec ID/Hint : DivX 5
Duration : 1h 43mn
Bit rate : 854 Kbps
Width : 720 pixels
Height : 332 pixels
Display aspect ratio : 2.2:1
Frame rate : 29.970 fps
Color space : YUV
Chroma subsampling : 4:2:0
Bit depth : 8 bits
Scan type : Progressive
Compression mode : Lossy
Bits/(Pixel*Frame) : 0.119
Stream size : 634 MiB (92%)
Writing library : XviD 1.2.1 (UTC 2008-12-04)



Audio
ID : 1
Format : MPEG Audio
Format version : Version 1
Format profile : Layer 3
Mode : Joint stereo
Mode extension : MS Stereo
Codec ID : 55
Codec ID/Hint : MP3
Duration : 1h 43mn
Bit rate mode : Constant
Bit rate : 64.0 Kbps
Channel(s) : 2 channels
Sampling rate : 48.0 KHz
Compression mode : Lossy
Stream size : 47.5 MiB (7%)
Alignment : Aligned on interleaves
Interleave, duration : 24 ms (0.72 video frame)
Writing library : LAME3.98.4



Screens:
image
image
image

Related Torrents

torrent name size files age seed leech

Sharing Widget


Download torrent
691.35 MB
seeders:10
leechers:1
I Love Me (2012) Malayalam Movie DVDRip XviD - Exclusive

Trackers

tracker name Status checked seeders leechers downloads
udp://tracker.openbittorrent.com:80/announce
outdated 07 May 2014 - - -
http://tracker.ex.ua/announce
outdated 07 May 2014 - - -
udp://tracker.publicbt.com:80/announce
outdated 07 May 2014 - - -
udp://tracker.istole.it:80/announce
outdated 02 Oct 2013 - - -
http://exodus.desync.com:6969/announce
blocked 08 Jun 2013 - - -
http://exodus.desync.com/announce
blocked 08 Jun 2013 - - -
udp://fr33dom.h33t.com:3310/announce
deleted 08 Jun 2013 - - -
udp://fr33domtracker.h33t.com:3310/announce
deleted 08 Jun 2013 - - -
udp://ipv4.tracker.harry.lu:80/announce
pending 07 May 2014 10 1 10
udp://11.rarbg.com:80/announce
private 07 May 2014 6 1 10
ĀµTorrent compatible trackers list

Locations

name
KickassTorrents
Torrent hash: 7A9AE76AEBB06BC4503BF01B2235C2A0DC5D329E

All Comments

audio
7/10
video
7/10
please, leave only comments related to that torrent
or sign-in
0
niranjankick43 • 04 December 2013, 06:35
torrent downloaded
Show comment
audio: 7video: 6
watchable print...movie is below average
0
anonymous • 10 November 2013, 17:37 Show comment
Nice Print Machaaaa.......A BIG Thanks......!!!
0
anonymous • 10 November 2013, 17:36 Show comment
audio: 8video: 8
Nice Film Machaaaa..............A BIG Thanks....!!!!
0
Wi-FiTechie1283 • 25 May 2013, 02:48
torrent downloaded
Show comment
audio: 7video: 7
Average Print but Nice Movie!
0
arun62805 • 15 May 2013, 07:35
torrent downloaded
Show comment
audio: 7video: 7
watchable print!
0
fanofkat705 • 27 March 2013, 10:58
torrent downloaded
Show comment
vana padam
0
anonymous • 22 March 2013, 15:59 Show comment
thanks can u please upload Ayalum Njanum Thammil & bavuttiyude namathil
0
anonymous • 22 March 2013, 16:00 Show comment
please do a good print
0
anonymous • 20 March 2013, 13:28 Show comment
Mega flop..
0
Hot_Rod5196 • 18 March 2013, 12:57
torrent downloaded
Show comment
audio: 8video: 8
Good Rip...,
0
g1adw!n94148 • 15 March 2013, 06:01
torrent downloaded
Show comment
audio: 9video: 7
not bad.. mor dan wachable..
Show More

User Opinions

praveen59107030, Hot_Rod5196, mmwmathew4203, champion0073398, navikv3346, Indi_King2337, amiaham2281, arun62805, hallowen139, niranjankick43 ... And 22 more

Latest News

--> --> --> -->
Report a bug